Скачать фильмы для Тюнера Т2

Скачать фильмы для Тюнера Т2.rar
Закачек 2524
Средняя скорость 3343 Kb/s
Скачать

Скачать фильмы для Тюнера Т2

Информация о фильме

Оригинальное название: T2

Режиссер: Чито С. Роно

Джон Ллойд Круз

О фильме: Клэр (Maricel Сориано) — менеджер в туристическом агентстве, а в свободное время она помогает сиротам найти новую семью.

Чтобы отвлечься от своих проблем с мужем, она вызывается сопровождать ребенка к приемные родителям, а на обратном пути из-за проблем на дороге, ей приходится провести ночь в приюте, где она встречает Анжели (Мика Дела Крус), грустную девочку, страдающую ночными кошмарами и уверенную, что ее окружают духи.

Перевод: Любительский одноголосый закадровый: (den904)

Перевод на русский: (Oxana_L)

Видео: 624×416 (1.50:1), 23.976 fps, 1027 kbps avg, 0.17 bit/pixel

Звук: Русский, 48 KHz, MPEG layer 3, 320 kbps

Название: Т2 Трейнспоттинг (На игле 2)

Оригинальное название: T2: Trainspotting 2

Год выпуска: 2017

Выпущено: Великобритания, Cloud Eight Films, Creative Scotland, Decibel Films

Режиссер: Дэнни Бойл

В ролях: Эван МакГрегор, Юэн Бремнер, Джонни Ли Миллер, Роберт Карлайл, Кевин МакКидд, Кайл Фицпатрик, Келли Макдоналд, Анжела Недялкова, Полин Линч, Джеймс Космо

Перевод: Дублированный [Лицензия]

Информация о фильме

Название: Т2 Трейнспоттинг (На игле 2)

Оригинальное название: T2 Trainspotting

Год выхода: 2017

Режиссер: Дэнни Бойл

В ролях: Юэн МакГрегор, Юэн Бремнер, Джонни Ли Миллер, Роберт Карлайл, Кевин МакКидд, Кайл Фицпатрик, Келли Макдоналд, Анжела Недялкова, Полин Линч, Джеймс Космо

Студия: Cloud Eight Films, Creative Scotland, Decibel Films, DNA Films, Film4, TriStar Pictures

Перевод: Профессиональный (полное дублирование)[Blu-ray EUR]

Качество: BDRip 1080p

Кодек: MPEG-4 AVC

Видео: 1920×1036 (1.85:1), 23,976 fps, MPEG-4 AVC

14.9 Mbps avg, 0.311 bit/pixel

Аудио: АС3, 48 kHz, 6 ch,

640.00 kbps avg | русский | Профессиональный (полное дублирование)

Аудио: DTS, 48 kHz, 6 ch,

1509.00 kbps avg | английский | Оригинал

Аудио: АС3, 48 kHz, 2 ch,

192.00 kbps avg | английский | Audio Commentary with Director Danny Boyle and Screenwriter John Hodge

Субтитры: Russian (iTunes), Ukrainian (iTunes), English (Forced, iTunes), English (iTunes)

Уникальный идентификатор : 234688033281805946101603602733955478441 (0xB08F4566114D969CA24A8C56F192F3A9)

Полное имя : D:TorrentsЗавершенныеT2.Trainspotting.2017.1080p.BluRay.Rus.2xEng.HDCLUB.mkv

Версия формата : Version 2

Размер файла : 14,4 Гбайт

Продолжительность : 1 ч. 57 м.

Общий поток : 17,5 Мбит/сек

Название фильма : T2 Trainspotting (2017) — Release for HDCLUB

Дата кодирования : UTC 2017-05-27 22:00:56

Программа кодирования : mkvmerge v3.4.0 (‘Rapunzel’) built on May 15 2010 09:38:20

Библиотека кодирования : libebml v0.8.0 + libmatroska v0.9.0

Формат/Информация : Advanced Video Codec

Профиль формата : High@L4.1

Параметр CABAC формата : Да

Параметр ReFrames формата : 4 кадра

Идентификатор кодека : V_MPEG4/ISO/AVC

Продолжительность : 1 ч. 57 м.

Битрейт : 14,9 Мбит/сек

Ширина : 1920 пикселей

Высота : 1036 пикселей

Соотношение сторон : 1,85:1

Режим частоты кадров : Постоянный

Частота кадров : 23,976 (24000/1001) кадра/сек

Цветовое пространство : YUV

Субдискретизация насыщенности : 4:2:0

Битовая глубина : 8 бит

Тип развёртки : Прогрессивная

Размер потока : 12,2 Гбайт (85%)

Заголовок : T2 Trainspotting (2017) — Release for HDCLUB

Библиотека кодирования : x264 core 148 r2744 b97ae06

Настройки программы : cabac=1 / ref=4 / deblock=1:-3:-3 / analyse=0x3:0x133 / me=umh / subme=11 / psy=1 / psy_rd=1.00:0.00 / mixed_ref=1 / me_range=48 / chroma_me=1 / trellis=2 / 8x8dct=1 / cqm=0 / deadzone=21,11 / fast_pskip=0 / chroma_qp_offset=-2 / threads=18 / lookahead_threads=3 / sliced_threads=0 / nr=0 / decimate=1 / interlaced=0 / bluray_compat=0 / constrained_intra=0 / bframes=8 / b_pyramid=2 / b_adapt=2 / b_bias=0 / direct=1 / weightb=1 / open_gop=0 / weightp=2 / keyint=240 / keyint_min=23 / scenecut=40 / intra_refresh=0 / rc_lookahead=60 / rc=crf / mbtree=0 / crf=18.1 / qcomp=0.60 / qpmin=0 / qpmax=69 / qpstep=4 / vbv_maxrate=50000 / vbv_bufsize=62500 / crf_max=0.0 / nal_hrd=none / filler=0 / ip_ratio=1.35 / pb_ratio=1.25 / aq=1:0.80

Формат/Информация : Audio Coding 3

Параметр Endianness формата : Big

Идентификатор кодека : A_AC3

Продолжительность : 1 ч. 57 м.

Вид битрейта : Постоянный

Битрейт : 640 Кбит/сек

Каналы : 6 каналов

Расположение каналов : Front: L C R, Side: L R, LFE

Частота : 48,0 КГц

Частота кадров : 31,250 кадров/сек (1536 spf)

Битовая глубина : 16 бит

Метод сжатия : С потерями

Размер потока : 537 Мбайт (4%)

Заголовок : AC3 5.1 @ 640 kbps — DUB, Blu-ray EUR

Формат/Информация : Digital Theater Systems

Параметр Endianness формата : Big

Идентификатор кодека : A_DTS

Продолжительность : 1 ч. 57 м.

Вид битрейта : Постоянный

Битрейт : 1509 Кбит/сек

Каналы : 6 каналов

Расположение каналов : Front: L C R, Side: L R, LFE

Частота : 48,0 КГц

Частота кадров : 93,750 кадра/сек (512 spf)

Битовая глубина : 24 бит

Метод сжатия : С потерями

Размер потока : 1,24 Гбайт (9%)

Заголовок : DTS 5.1 @ 1536 kbps

Формат/Информация : Audio Coding 3

Параметр Endianness формата : Big

Идентификатор кодека : A_AC3

Продолжительность : 1 ч. 57 м.

Вид битрейта : Постоянный

Битрейт : 192 Кбит/сек

Каналы : 2 канала

Расположение каналов : Front: L R

Частота : 48,0 КГц

Частота кадров : 31,250 кадров/сек (1536 spf)

Битовая глубина : 16 бит

Метод сжатия : С потерями

Размер потока : 161 Мбайт (1%)

Заголовок : AC3 2.0 @ 192 kbps — Audio Commentary with Director Danny Boyle and Screenwriter John Hodge

Идентификатор кодека : S_TEXT/UTF8

Идентификатор кодека/Информация : UTF-8 Plain Text

Идентификатор кодека : S_TEXT/UTF8

Идентификатор кодека/Информация : UTF-8 Plain Text

Идентификатор кодека : S_TEXT/UTF8

Идентификатор кодека/Информация : UTF-8 Plain Text

Заголовок : Forced, iTunes

Идентификатор кодека : S_TEXT/UTF8

Идентификатор кодека/Информация : UTF-8 Plain Text


Статьи по теме